megadeth super collider 2013 musica sin pérdida flac // gilmoreforpresident.com
dave frary lista de libros por el autor dave frary | cómo restablecer de fábrica la recuperación de tu teléfono android android | Rizador de varitas de aplicador de pestañas desechables de 120 paquetes | consola xbox 360 halo 4 edición limitada | Detalles del campo de batalla mala compañía 2 edición limitada. | Juego de PC del año Divinity Original sin pecado mejores juegos. | la ciudad americana del siglo XXI por kellogg wendy | Perfil de la empresa forbes technosys ltd bloomberg

Megadeth - Off The Edge Super Collider 2013

Descargar album Megadeth – Super Collider 2013 totalmente gratis sin ningun tipo de restricciones. Servidores como MEGA, Google Drive, Zippyshare, 4Shared, Torrent, Mediafire. Estan disponibles para la descarga. Megadeth – Super Collider 2013 en 320KBPS. MP3, M4A, FLAC. Download Free Megadeth – Super Collider 2013 Album. Descargar. 22/05/2013 · Lyrics here: Verse 1: When you feel life's bringing you down And you see that you're all alone When your friends they have all run out That is when you will know when to run Chorus: On the high road On the high road I will take you higher I will take you higher Till the world explodes Till the world explodes Just like a super. 03/06/2013 · Lyrics & Music - Mustaine Solo - Chris Lately, it seems the world is going crazy It won't be long till they replace me And nothing seems to faze me,. Megadeth - Off The Edge Super Collider 2013 YouTube; Megadeth - The.

Видеть ссылки, комментировать и оценивать могут только зарегестрированные пользователи! Filename C:\EAC Rips\Megadeth - Super Collider 2013 [FLAC]\13 - A House Divided.wav Peak level 100.0 % Extraction speed 1.5 X Track quality 99.9 % Test CRC 64C2F86F Copy CRC 64C2F86F Track not present in AccurateRip database Copy OK Track 14 Filename C:\EAC Rips\Megadeth - Super Collider 2013 [FLAC]\14 - Countdown To Extinction Live In. 23/04/2013 · Super Collider; Artist Megadeth; Writers Dave Mustaine; Licensed to YouTube by UMG on behalf of AG Records Megadeth 2017; Warner Chappell, Global Music Rights LLC, CMRRA, LatinAutor - Warner Chappell, LatinAutor - SonyATV, LatinAutor, PEDL, and 5 Music Rights Societies.

Descargar album Megadeth – Super Collider 2013 totalmente gratis sin ningun tipo de restricciones. Servidores como MEGA, Google Drive, Zippyshare, 4Shared, Torrent, Mediafire. Estan disponibles para la descarga. Megadeth – Super Collider 2013 en 320KBPS. MP3, M4A, FLAC. Download Free Megadeth – Super Collider 2013 Album. Descargar. 22/05/2013 · Lyrics here: Verse 1: When you feel life's bringing you down And you see that you're all alone When your friends they have all run out That is when you will know when to run Chorus: On the high road On the high road I will take you higher I will take you higher Till the world explodes Till the world explodes Just like a super. 03/06/2013 · Lyrics & Music - Mustaine Solo - Chris Lately, it seems the world is going crazy It won't be long till they replace me And nothing seems to faze me,. Megadeth - Off The Edge Super Collider 2013 YouTube; Megadeth - The. Видеть ссылки, комментировать и оценивать могут только зарегестрированные пользователи! Filename C:\EAC Rips\Megadeth - Super Collider 2013 [FLAC]\13 - A House Divided.wav Peak level 100.0 % Extraction speed 1.5 X Track quality 99.9 % Test CRC 64C2F86F Copy CRC 64C2F86F Track not present in AccurateRip database Copy OK Track 14 Filename C:\EAC Rips\Megadeth - Super Collider 2013 [FLAC]\14 - Countdown To Extinction Live In.

23/04/2013 · Super Collider; Artist Megadeth; Writers Dave Mustaine; Licensed to YouTube by UMG on behalf of AG Records Megadeth 2017; Warner Chappell, Global Music Rights LLC, CMRRA, LatinAutor - Warner Chappell, LatinAutor - SonyATV, LatinAutor, PEDL, and 5 Music Rights Societies. Descargar album Megadeth – Super Collider 2013 totalmente gratis sin ningun tipo de restricciones. Servidores como MEGA, Google Drive, Zippyshare, 4Shared, Torrent, Mediafire. Estan disponibles para la descarga. Megadeth – Super Collider 2013 en 320KBPS. MP3, M4A, FLAC. Download Free Megadeth – Super Collider 2013 Album. Descargar. 22/05/2013 · Lyrics here: Verse 1: When you feel life's bringing you down And you see that you're all alone When your friends they have all run out That is when you will know when to run Chorus: On the high road On the high road I will take you higher I will take you higher Till the world explodes Till the world explodes Just like a super. 03/06/2013 · Lyrics & Music - Mustaine Solo - Chris Lately, it seems the world is going crazy It won't be long till they replace me And nothing seems to faze me,. Megadeth - Off The Edge Super Collider 2013 YouTube; Megadeth - The.

Видеть ссылки, комментировать и оценивать могут только зарегестрированные пользователи! Filename C:\EAC Rips\Megadeth - Super Collider 2013 [FLAC]\13 - A House Divided.wav Peak level 100.0 % Extraction speed 1.5 X Track quality 99.9 % Test CRC 64C2F86F Copy CRC 64C2F86F Track not present in AccurateRip database Copy OK Track 14 Filename C:\EAC Rips\Megadeth - Super Collider 2013 [FLAC]\14 - Countdown To Extinction Live In. 23/04/2013 · Super Collider; Artist Megadeth; Writers Dave Mustaine; Licensed to YouTube by UMG on behalf of AG Records Megadeth 2017; Warner Chappell, Global Music Rights LLC, CMRRA, LatinAutor - Warner Chappell, LatinAutor - SonyATV, LatinAutor, PEDL, and 5 Music Rights Societies.

Descargar album Megadeth – Super Collider 2013 totalmente gratis sin ningun tipo de restricciones. Servidores como MEGA, Google Drive, Zippyshare, 4Shared, Torrent, Mediafire. Estan disponibles para la descarga. Megadeth – Super Collider 2013 en 320KBPS. MP3, M4A, FLAC. Download Free Megadeth – Super Collider 2013 Album. Descargar. 22/05/2013 · Lyrics here: Verse 1: When you feel life's bringing you down And you see that you're all alone When your friends they have all run out That is when you will know when to run Chorus: On the high road On the high road I will take you higher I will take you higher Till the world explodes Till the world explodes Just like a super. 03/06/2013 · Lyrics & Music - Mustaine Solo - Chris Lately, it seems the world is going crazy It won't be long till they replace me And nothing seems to faze me,. Megadeth - Off The Edge Super Collider 2013 YouTube; Megadeth - The. Видеть ссылки, комментировать и оценивать могут только зарегестрированные пользователи! Filename C:\EAC Rips\Megadeth - Super Collider 2013 [FLAC]\13 - A House Divided.wav Peak level 100.0 % Extraction speed 1.5 X Track quality 99.9 % Test CRC 64C2F86F Copy CRC 64C2F86F Track not present in AccurateRip database Copy OK Track 14 Filename C:\EAC Rips\Megadeth - Super Collider 2013 [FLAC]\14 - Countdown To Extinction Live In.

23/04/2013 · Super Collider; Artist Megadeth; Writers Dave Mustaine; Licensed to YouTube by UMG on behalf of AG Records Megadeth 2017; Warner Chappell, Global Music Rights LLC, CMRRA, LatinAutor - Warner Chappell, LatinAutor - SonyATV, LatinAutor, PEDL, and 5 Music Rights Societies.

Videos de tutoría de química orgánica de vollhardt 6ª edición
latidos por el dr. Fragmento de auriculares en la oreja dre solo 2
Temporada extra 24 para tener nuevos co-anfitriones y corresponsales.
Samsung Galaxy Note 10.1 2014 revisión t3
ideacity 2014 50 oradores 3 grandes fiestas y una tonelada de
5 estrellas moderno apartamento frankfurt alemania
corsair af 140mm vs sp 120mm para toms de refrigeración por agua
sangrado edición de lujo americana jimmy come mundo
viva vegas la música que hizo de la ciudad la sabana ga
El abc de la tienda de chessbase de ruy lopez.
obituarios diarios de mensajería en subvenciones pasa Oregon o
Puffinmuffins revisión de Titan Quest Gold Edition Gamespot
megadeth super collider lanza discogs
chessbase fritz trainer andrew martin el abc de la
Empleos de mystery shopper en lewisham se13 totaljobs
apartamentos de cinco estrellas apartamentos mebane nc
Libros y videos de ajedrez andrew martin el abc de la
Eyewitness noticias edición de la mañana wjz internet archivo
Street Fighter 2 juego en línea en y8 com
especificaciones y dimensiones del asiento ibiza hatchback 1.9 tdi 3d dab
megadeth metal súper colisionador mejor compra exclusivo
Haydn trompeta Concierto Edición Billaudot ver tema
ediciones de emily l por marguerite duras goodreads
§ 1-103. construcción de código comercial uniforme para
Fundamentos probatorios militares quinta edición kindle
Math 5 Teacher Edition con CD 3ª edición kathleen
jugar agot en la publicación vassal aquí un juego de tronos el
¿Cuáles fueron los cuatro mil agujeros en Blackburn Lancashire?
sairutsa por chrysandthib en amazon music unlimited
Contorno s 3.4 le altavoz de pie de pie edición limitada
El atrevido look de fiesta de los oscars de Vanity Vanity Fair de Kendall Jenner es
Cadillac Catera cuerpo del acelerador conjunto de piezas de automóviles usados
vado mustang led luces barras tiras halos bulbos
osenxpsuite 2007 Enterprise Edition fdmlib para windows
Ver la película completa de la laguna azul en línea de forma gratuita en hd
Israel mi gloria revista en la tienda de aplicaciones
La iluminación LED personalizada de Ford F150 destaca y brilla más.
get sfr mon compte 6.3.0 descarga apk para android
divinidad juego de pecado original bomba gigante
raymond murphy vaše internetové knihkupectví
/
sitemap 0
sitemap 1
sitemap 2
sitemap 3
sitemap 4
sitemap 5
sitemap 6
sitemap 7
sitemap 8
sitemap 9
sitemap 10
sitemap 11
sitemap 12
sitemap 13
sitemap 14
sitemap 15